<?xml version="1.0" standalone="no"?>
<!DOCTYPE svg PUBLIC "-//W3C//DTD SVG 1.1//EN" "http://www.w3.org/Graphics/SVG/1.1/DTD/svg11.dtd" >
<svg xmlns="http://www.w3.org/2000/svg">
<metadata>Generated by IcoMoon</metadata>
<defs>
<font id="icomoon" horiz-adv-x="1024">
<font-face units-per-em="1024" ascent="960" descent="-64" />
<missing-glyph horiz-adv-x="1024" />
<glyph unicode="&#x20;" horiz-adv-x="512" d="" />
<glyph unicode="&#xe900;" glyph-name="circle-minus" d="M512 959.996c282.301 0 511.992-229.682 511.992-511.974s-229.689-512.011-511.992-512.011c-282.301 0-511.992 229.718-511.992 512.011s229.689 511.974 511.992 511.974zM512 846.236c-219.571 0-398.229-178.65-398.229-398.214s178.656-398.214 398.229-398.214c219.571 0 398.229 178.65 398.229 398.214s-178.656 398.214-398.229 398.214zM682.675 504.931v-113.796h-341.364v113.796h341.364z" />
<glyph unicode="&#xe901;" glyph-name="circle-plus" d="M511.97 959.987c282.319 0 511.994-229.675 511.994-511.957s-229.675-511.994-511.994-511.994c-282.282 0-511.957 229.711-511.957 511.994s229.675 511.957 511.957 511.957zM511.97 846.231c-219.556 0-398.201-178.644-398.201-398.201s178.644-398.201 398.201-398.201c219.594 0 398.201 178.644 398.201 398.201s-178.607 398.201-398.201 398.201zM568.859 618.686v-113.792h113.792v-113.756h-113.792v-113.792h-113.756v113.792h-113.792v113.756h113.792v113.792h113.756z" />
<glyph unicode="&#xe902;" glyph-name="add-user" d="M439.834 846.168c63.283-0.777 102.183-54.635 133.197-80.713 32.137-27.009 17.751-72.687 22.964-128.148 2.409-25.758 18.411-7.217 28.837-41.315 7.886-25.694-1.749-94.018-22.7-117.851-20.621-23.48-19.004-89.592-52.691-114.675-35.931-26.72-58.4-6.672-3.3-114.547 27.781-54.435 209.777-34.675 245.608-82.277 24.401-32.334 27.112-99.516 27.413-114.047l0.037-2.81h-819.146l0.047 2.81c0.319 14.53 3.004 81.713 27.405 114.047 35.831 47.602 217.827 27.844 245.608 82.213 55.134 107.94 32.598 87.892-3.3 114.611-33.687 25.084-32.070 91.195-52.691 114.675-20.919 23.833-30.586 92.158-22.7 117.851 10.426 34.098 26.429 15.558 28.837 41.315 5.246 55.462 4.322 200.899 140.852 186.721 28.671 16.007 53.682 22.389 75.722 22.141zM921.607 597.3v-99.567h102.381v-99.567h-102.381v-99.535h-102.413v99.535h-102.381v99.567h102.381v99.567h102.413z" />
<glyph unicode="&#xe903;" glyph-name="alarm-clock" d="M569.179 959.962v-117.71c225.209-28.154 400.101-219.51 400.101-451.116 0-250.926-205.134-455.075-457.268-455.075s-457.268 204.15-457.268 455.075c0 231.606 174.93 422.962 400.137 451.116v0 117.71h114.299zM512.010 732.425c-189.111 0-342.933-153.122-342.933-341.287 0-188.203 153.822-341.325 342.933-341.325s342.97 153.122 342.97 341.325c0 188.167-153.86 341.287-342.97 341.287zM569.171 618.641v-170.644h114.335v-113.75h-228.635v284.395h114.299zM114.373 957.502l80.815-80.428-114.299-113.786-80.815 80.464 114.299 113.75zM909.64 957.495l114.335-113.75-80.815-80.428-114.335 113.75 80.815 80.428z" />
<glyph unicode="&#xe904;" glyph-name="alert" d="M512-64c-282.287 0-512 229.715-512 512 0 282.287 229.713 512 512 512 282.349 0 512-229.713 512-512 0-282.285-229.651-512-512-512zM455.111 376.889h113.778v341.333h-113.778v-341.333zM455.111 177.779h113.778v113.779h-113.778v-113.779z" />
<glyph unicode="&#xe905;" glyph-name="caret-left" d="M865.009 957.24c-3.406 1.8-7.16 2.76-10.992 2.76-4.761 0-9.444-1.52-13.353-4.32l-684.169-487.214c-6.386-4.56-10.217-12.041-10.217-20.080 0-8 3.832-15.52 10.217-20.080l684.169-488.012c7.276-5.161 16.72-5.72 24.539-1.4 7.78 4.28 12.617 12.721 12.503 21.88v974.868c0 9.080-4.879 17.4-12.696 21.601v-0.002z" />
<glyph unicode="&#xe906;" glyph-name="caret-right" d="M158.991-61.24c3.406-1.8 7.16-2.76 10.992-2.76 4.761 0 9.444 1.52 13.353 4.32l684.169 487.214c6.386 4.56 10.217 12.041 10.217 20.080 0 8-3.832 15.52-10.217 20.080l-684.169 488.012c-7.276 5.161-16.72 5.72-24.539 1.4-7.78-4.28-12.617-12.721-12.503-21.88v-974.868c0-9.080 4.879-17.4 12.696-21.601v0.002z" />
<glyph unicode="&#xe907;" glyph-name="caret-up" d="M1021.24 94.991c1.8 3.406 2.76 7.16 2.76 10.992 0 4.761-1.52 9.444-4.32 13.353l-487.214 684.169c-4.56 6.386-12.041 10.217-20.080 10.217-8 0-15.52-3.832-20.080-10.217l-488.012-684.169c-5.161-7.276-5.72-16.72-1.4-24.539 4.28-7.78 12.721-12.617 21.88-12.503h974.868c9.080 0 17.4 4.879 21.601 12.696h-0.002z" />
<glyph unicode="&#xe908;" glyph-name="caret-down" d="M2.76 801.009c-1.8-3.406-2.76-7.16-2.76-10.992 0-4.761 1.52-9.444 4.32-13.353l487.214-684.169c4.56-6.386 12.041-10.217 20.080-10.217 8 0 15.52 3.832 20.080 10.217l488.012 684.169c5.161 7.276 5.72 16.72 1.4 24.539-4.28 7.78-12.721 12.617-21.88 12.503h-974.868c-9.080 0-17.4-4.879-21.601-12.696h0.002z" />
<glyph unicode="&#xe909;" glyph-name="arrow-down-left" d="M96.374 820.509l123.872-0.058-0.252-576.877 620.388 620.388 87.588-87.588-620.388-620.388 576.848 0.286 0.058-123.872-788.443-0.367z" />
<glyph unicode="&#xe90a;" glyph-name="arrow-down-right" d="M139.491 32.374l0.058 123.872 576.877-0.252-620.388 620.388 87.588 87.588 620.388-620.388-0.286 576.848 123.872 0.058 0.367-788.443z" />
<glyph unicode="&#xe90b;" glyph-name="arrow-down" d="M1023.966 448.44l-512.002-512.423-511.964 512.423 80.509 80.43 374.559-374.915v806.028h113.794v-806.028l374.598 374.915 80.506-80.43z" />
<glyph unicode="&#xe90c;" glyph-name="arrow-left" d="M512.44-63.966l-512.423 512.002 512.423 511.964 80.43-80.509-374.915-374.559h806.028v-113.794h-806.028l374.915-374.598-80.43-80.506z" />
<glyph unicode="&#xe90d;" glyph-name="arrow-right" d="M511.56 959.966l512.423-512.002-512.423-511.964-80.43 80.509 374.915 374.559h-806.028v113.794h806.028l-374.915 374.598 80.43 80.506z" />
<glyph unicode="&#xe90e;" glyph-name="arrow-up-left" d="M884.509 863.626l-0.058-123.872-576.877 0.252 620.388-620.388-87.588-87.588-620.388 620.388 0.286-576.848-123.872-0.058-0.367 788.443z" />
<glyph unicode="&#xe90f;" glyph-name="arrow-up-right" d="M927.626 75.491l-123.872 0.058 0.252 576.877-620.388-620.388-87.588 87.588 620.388 620.388-576.848-0.286-0.058 123.872 788.443 0.367z" />
<glyph unicode="&#xe910;" glyph-name="arrow-up" d="M0.034 447.56l512.002 512.423 511.964-512.423-80.509-80.43-374.559 374.915v-806.028h-113.794v806.028l-374.598-374.915-80.506 80.43z" />
<glyph unicode="&#xe911;" glyph-name="attach" d="M755.801 704.010v-409.604c0-141.154-109.382-255.978-243.807-255.978s-243.775 114.824-243.775 255.978v409.604c0 84.7 65.611 153.594 146.272 153.594s146.272-68.895 146.272-153.594v-409.604c0-28.211-21.87-51.208-48.767-51.208s-48.767 22.998-48.767 51.208v409.604h-97.503v-409.604c0-84.7 65.611-153.594 146.272-153.594 80.693 0 146.272 68.895 146.272 153.594v409.604c0 141.154-109.35 255.978-243.775 255.978s-243.807-114.824-243.807-255.978v-409.604c0-197.609 153.122-358.395 341.31-358.395s341.342 160.786 341.342 358.395v409.604h-97.535z" />
<glyph unicode="&#xe912;" glyph-name="back" d="M36.631 956.788h219.397c20.125 0 36.574-14.345 36.574-31.805v-386.858l680.911 419.4c4.289 1.558 8.954 2.419 13.857 2.419 20.266 0 36.574-14.222 36.574-31.805v-960.278c0-17.542-16.308-31.805-36.574-31.805-4.902 0-9.568 0.902-13.857 2.46l-680.911 419.359v-386.858c0-17.46-16.448-31.805-36.574-31.805h-219.397c-20.077 0-36.574 14.345-36.574 31.805v953.966c0 17.46 16.496 31.805 36.574 31.805z" />
<glyph unicode="&#xe913;" glyph-name="download" d="M569.309 959.978v-574.526l246.383 244.571 80.271-79.622-383.978-381.153-383.978 381.153 80.266 79.622 246.385-244.571v574.526h114.651zM827.135 49.781v-113.754h-630.363v113.754h630.363z" />
<glyph unicode="&#xe914;" glyph-name="bell" d="M632.488 49.816c0-62.871-53.916-113.79-120.488-113.79s-120.488 50.92-120.488 113.79v0zM511.981 959.975c198.781 0 361.424-153.603 361.424-341.337v0-312.852l150.57-199.097h-1023.951l150.57 199.097v312.852c0 187.734 162.643 341.337 361.385 341.337z" />
<glyph unicode="&#xe915;" glyph-name="bin" d="M860.41 703.96v-753.75c0-14.089-11.196-14.187-24.892-14.187v0h-647.085c-13.665 0-24.892 0.099-24.892 14.187v0 753.75h696.871zM462.221 550.405h-49.786v-409.589h49.786v409.589zM611.545 550.405h-49.786v-409.589h49.786v409.589zM621.853 959.978l99.54-102.414h163.921c13.698 0 24.892-22.931 24.892-37.020v0-65.361h-796.41v65.361c0 14.089 11.196 37.020 24.892 37.020v0h163.889l99.54 102.414h219.737zM601.225 908.771h-178.484l-49.786-51.207h278.056l-49.786 51.207z" />
<glyph unicode="&#xe916;" glyph-name="calendar" d="M729.6 903.090c25.752-0.247 46.722-19.263 48.873-43.343l0.18-4.572-0.765-71.488 146.998-0.035c54.727 0 99.093-42.484 99.093-94.889v-600.966c0-52.406-44.365-94.889-99.093-94.889h-825.771c-54.727 0-99.093 42.484-99.093 94.889v600.966c0 52.406 44.365 94.889 99.093 94.889l150.298 0.035 0.752 72.428c0.271 26.202 22.672 47.231 50.035 46.974 25.752-0.247 46.722-19.263 48.873-43.343l0.18-4.572-0.744-71.488h330.283l0.775 72.428c0.271 26.202 22.672 47.231 50.035 46.974zM924.882 426.497h-825.82l0.053-338.699h825.771l-0.004 338.699zM248.389 688.8l-149.274-0.037-0.053-167.379h825.82l0.004 167.379-147.966 0.037-0.676-66.31c-0.271-26.202-22.672-47.231-50.035-46.974-25.752 0.247-46.722 19.263-48.873 43.343l-0.18 4.572 0.668 65.371h-330.339l-0.641-66.31c-0.271-26.202-22.672-47.231-50.035-46.974-25.752 0.247-46.722 19.263-48.873 43.343l-0.18 4.572 0.632 65.371z" />
<glyph unicode="&#xe917;" glyph-name="camera" d="M512.007 291.669c53.961 0 97.706 43.745 97.706 97.708 0 53.961-43.745 97.706-97.706 97.706-53.963 0-97.708-43.745-97.708-97.706 0-53.963 43.745-97.708 97.708-97.708zM408.705 825.813c-20.086 0-38.504-11.17-47.79-28.982l-42.608-81.739h-210.506c-59.529 0-107.786-48.258-107.786-107.786v-429.332c0-59.528 48.258-107.786 107.786-107.786h808.407c59.528 0 107.786 48.259 107.786 107.786v429.332c0 59.529-48.259 107.786-107.786 107.786h-210.512l-42.608 81.74c-9.286 17.811-27.704 28.981-47.79 28.981h-206.592zM313.855 389.653c0 104.176 84.451 188.627 188.626 188.627h19.043c104.176 0 188.626-84.451 188.626-188.627s-84.451-188.626-188.626-188.626h-19.043c-104.176 0-188.626 84.451-188.626 188.626z" />
<glyph unicode="&#xe918;" glyph-name="chevron-down" d="M512 345.601l409.594 409.594 102.399-102.399-511.993-511.993-511.993 511.993 102.399 102.399z" />
<glyph unicode="&#xe919;" glyph-name="chevron-left" d="M409.598 448.007l409.592-409.592-102.398-102.398-511.991 511.991 511.991 511.991 102.398-102.398z" />
<glyph unicode="&#xe91a;" glyph-name="chevron-right" d="M614.39 447.999l-409.594-409.594 102.399-102.399 511.993 511.993-511.993 511.993-102.399-102.399z" />
<glyph unicode="&#xe91b;" glyph-name="chevron-up" d="M512.015 550.388l409.579-409.579 102.395 102.395-511.974 511.974-511.974-511.974 102.395-102.395z" />
<glyph unicode="&#xe91c;" glyph-name="clock" d="M512 959.962c282.322 0 511.962-229.669 511.962-511.982s-229.641-511.944-511.962-511.944c-282.322 0-511.962 229.633-511.962 511.944s229.641 511.982 511.962 511.982zM512 846.173c-219.523 0-398.206-178.603-398.206-398.191 0-219.515 178.684-398.191 398.206-398.191 219.559 0 398.206 178.676 398.206 398.191 0 219.589-178.646 398.191-398.206 398.191zM568.889 732.405v-227.542h113.794v-113.753h-227.587v341.296h113.794z" />
<glyph unicode="&#xe91d;" glyph-name="cloud" d="M844.693 496.307c0 0.581 0.099 1.129 0.099 1.709 0 165.578-137.79 300.292-307.191 300.292-133.6 0-247.204-83.917-289.438-200.538-137.493-3.902-248.162-114.363-248.162-249.882 0-137.971 115.024-250.205 256.377-250.205h562.809c112.912 0 204.806 89.787 204.806 200.15 0 101.946-78.365 186.122-179.299 198.474z" />
<glyph unicode="&#xe91e;" glyph-name="cog" d="M512.012 305.786c-78.561 0-142.202 63.751-142.202 142.202 0 78.561 63.641 142.238 142.202 142.238 78.451 0 142.202-63.678 142.202-142.238 0-78.451-63.751-142.202-142.202-142.202v0zM1023.96 362.68v170.65l-126.805 14.077c-9.385 36.513-23.792 70.973-42.488 102.682l79.66 99.566-120.682 120.682-99.53-79.66c-31.747 18.733-66.171 33.067-102.719 42.525l-14.040 126.768h-170.686l-14.077-126.768c-36.586-9.458-71.008-23.792-102.682-42.525l-99.603 79.66-120.719-120.682 79.734-99.566c-18.733-31.674-33.067-66.171-42.525-102.682l-126.768-14.077v-170.65l126.768-14.077c9.458-36.586 23.792-71.008 42.525-102.682l-79.734-99.603 120.719-120.682 99.603 79.697c31.674-18.733 66.097-33.104 102.682-42.488l14.077-126.805h170.686l14.040 126.805c36.549 9.385 70.973 23.756 102.647 42.488l99.603-79.697 120.682 120.682-79.66 99.603c18.77 31.674 33.104 66.097 42.488 102.682l126.805 14.077z" />
<glyph unicode="&#xe91f;" glyph-name="comment" d="M682.671 391.106c-31.417 0-56.897 25.478-56.897 56.894s25.479 56.894 56.897 56.894c31.417 0 56.897-25.478 56.897-56.894s-25.479-56.894-56.897-56.894zM512.018 391.106c-31.417 0-56.897 25.478-56.897 56.894s25.479 56.894 56.897 56.894c31.417 0 56.859-25.478 56.859-56.894s-25.442-56.894-56.859-56.894zM341.329 391.106c-31.381 0-56.859 25.478-56.859 56.894s25.479 56.894 56.859 56.894c31.417 0 56.897-25.478 56.897-56.894s-25.479-56.894-56.897-56.894zM512.018 959.975c-282.795 0-511.994-229.226-511.994-511.975 0-141.392 57.3-269.367 149.939-362.040l-149.939-149.934h511.994c282.795 0 511.957 229.19 511.957 511.975 0 282.748-229.162 511.975-511.957 511.975z" />
<glyph unicode="&#xe920;" glyph-name="crop" d="M284.481 220.47v455.097h455.114v-455.097h-455.114zM853.353 220.47v483.509c0 47.071-38.311 85.344-85.347 85.344h-483.526v170.653h-113.796v-170.653h-170.659v-113.756h170.659v-483.545c0-47.071 38.275-85.344 85.347-85.344h483.526v-170.653h113.796v170.653h170.621v113.792h-170.621z" />
<glyph unicode="&#xe921;" glyph-name="document" d="M810.644 71.391c0-18.148-14.434-32.995-32.078-32.995h-533.164c-17.642 0-32.078 14.848-32.078 32.995v753.218c0 18.114 14.434 32.995 32.078 32.995h284.274c17.674 0 32.078-14.881 32.078-32.995v-190.020c0-18.148 14.434-32.995 32.078-32.995h184.736c17.642 0 32.078-14.848 32.078-32.995v-497.207zM634.216 936.661c-12.478 12.836-28.261 23.327-35.125 23.327h-428.335c-17.642 0-37.691-2.573-44.524-5.775-6.865-3.168-12.446-34.678-12.446-52.826v-906.778c0-18.148 2.503-38.77 5.613-45.798 3.048-7.061 33.714-12.802 51.356-12.802h682.487c17.61 0 37.659 2.607 44.492 5.741 6.865 3.168 12.478 34.711 12.478 52.859v625.196c0 18.148-10.233 43.488-22.712 56.323l-253.287 260.532z" />
<glyph unicode="&#xe922;" glyph-name="drawer" d="M810.672 857.575v-665.56h-193.693c0-51.207-47.284-102.382-102.268-102.382-54.951 0-102.268 51.174-102.268 102.382h-199.114v665.56h597.344zM910.214 934.386c0 14.121-11.132 25.603-24.893 25.603h-746.64c-13.762 0-24.893-11.482-24.893-25.603v-972.771c0-14.121 11.132-25.603 24.893-25.603h746.64c13.762 0 24.893 11.482 24.893 25.603v972.771z" />
<glyph unicode="&#xe923;" glyph-name="dribble" d="M756.2 85.412c-4.351 26.366-27.773 154.673-84.983 312.289 141.106 22.526 263.334-16.126 272.357-19.134-19.39-121.781-89.144-226.922-187.374-293.156zM512 10.794c-105.909 0-202.86 37.628-278.501 100.15 5.759-4.608 9.727-7.615 9.727-7.615s83.896 182.831 343.135 273.125c0.96 0.384 1.855 0.64 2.88 0.895 61.499-159.856 86.968-293.667 93.367-331.936-52.411-22.334-110.133-34.621-170.607-34.621zM74.794 448.064c0 4.608 0.192 9.215 0.319 13.758 7.807-0.127 223.786-5.056 448.853 62.266 12.479-24.446 24.509-49.404 35.517-74.297-5.887-1.6-11.519-3.328-17.278-5.183-235.945-76.217-355.55-288.548-355.55-288.548s0.127-0.127 0.127-0.192c-69.625 77.433-111.99 179.822-111.99 292.196zM325.394 843.417c5.824-7.807 86.711-117.428 162.352-251.944-209.9-55.739-392.091-53.563-403.609-53.371 28.349 135.411 119.348 247.721 241.256 305.315zM800.676 776.096c-1.087-1.663-63.354-96.439-228.33-158.32-74.745 137.331-156.849 246.44-163.376 255.079 33.021 8.063 67.513 12.351 103.030 12.351 110.581 0 211.691-41.212 288.676-109.11zM949.077 452.351c-6.4 1.408-154.353 33.213-304.61 14.334-3.007 7.487-6.143 14.975-9.407 22.589-9.088 21.437-18.879 42.62-29.117 63.418 172.783 70.393 242.856 171.759 243.624 173.040 61.37-74.489 98.359-169.647 99.511-273.382zM1013.455 551.030c-6.655 32.893-16.767 65.338-29.885 96.247-12.735 30.398-28.67 59.642-47.163 86.968-18.366 27.134-39.356 52.603-62.458 75.705-23.102 23.23-48.636 44.22-75.768 62.521-27.326 18.495-56.635 34.365-86.968 47.227-30.909 12.99-63.226 23.102-96.247 29.822-33.597 6.911-68.345 10.431-102.967 10.431-34.749 0-69.37-3.52-103.159-10.431-32.829-6.719-65.209-16.83-96.247-29.822-30.206-12.863-59.579-28.733-86.968-47.227-27.005-18.303-52.475-39.292-75.768-62.521-23.102-23.102-44.091-48.571-62.329-75.705-18.495-27.326-34.365-56.57-47.292-86.968-13.119-30.909-23.102-63.354-29.822-96.247-6.911-33.597-10.367-68.345-10.367-102.967 0-34.749 3.456-69.497 10.367-103.159 6.719-32.893 16.702-65.274 29.822-96.183 12.927-30.333 28.797-59.706 47.292-87.032 18.238-27.069 39.229-52.538 62.329-75.705 23.294-23.165 48.763-44.156 75.768-62.458 27.389-18.495 56.762-34.365 86.968-47.163 31.036-13.119 63.418-23.102 96.247-29.885 33.789-6.911 68.41-10.431 103.159-10.431 34.621 0 69.37 3.52 102.967 10.431 33.021 6.784 65.338 16.767 96.247 29.885 30.333 12.798 59.642 28.67 86.968 47.163 27.134 18.303 52.667 39.292 75.768 62.458s44.091 48.636 62.458 75.705c18.495 27.326 34.429 56.699 47.163 87.032 13.119 30.909 23.23 63.289 29.885 96.183 6.976 33.661 10.494 68.41 10.494 103.159 0 34.621-3.52 69.37-10.494 102.967z" />
<glyph unicode="&#xe924;" glyph-name="education" d="M1010.675 590.061l-491.472 184.308c-4.659 1.747-9.721 1.747-14.38 0l-491.472-184.308c-8.019-3.002-13.35-10.662-13.35-19.175 0-8.557 5.286-16.173 13.306-19.174l89.102-33.423v-213.656c0-11.29 9.183-20.474 20.473-20.474s20.473 9.184 20.473 20.474v198.289l81.935-30.733v-290.441c0-2.913 0.672-5.692 1.747-8.2 17.651-46.055 183.675-53.22 284.962-53.22s267.311 7.21 284.96 53.22c1.078 2.507 1.751 5.286 1.751 8.2v290.441l211.979 79.476c7.972 3.046 13.302 10.662 13.302 19.219 0 8.512-5.348 16.176-13.319 19.177zM757.743 218.168c-59.313 20.966-170.361 24.998-245.764 24.998-75.35 0-186.45-4.031-245.764-24.998v296.498c163.158 47.354 328.322 47.354 491.474 0l0.055-296.498zM511.978 161.273c-116.472 0-193.297 10.884-228.241 20.473 34.987 9.633 111.771 20.473 228.241 20.473 116.472 0 193.295-10.884 228.243-20.473-34.943-9.589-111.771-20.473-228.243-20.473zM798.683 515.962v13.979c0 9.005-5.87 16.935-14.469 19.578-180.673 55.598-363.852 55.598-544.477 0-8.602-2.689-14.468-10.618-14.468-19.578v-13.979l-146.45 54.927 433.155 162.447 433.158-162.447-146.447-54.927z" />
<glyph unicode="&#xe925;" glyph-name="email" d="M1023.975 579.734v-428.859c0-12.578-11.548-22.86-25.604-22.86v0h-972.776c-14.056 0-25.571 10.281-25.571 22.86v0 428.859l511.975-228.569 511.975 228.569zM998.371 767.984c14.056 0 25.604-10.311 25.604-22.86v0-63.189l-511.975-228.541-511.975 228.541v63.189c0 12.55 11.515 22.86 25.571 22.86v0z" />
<glyph unicode="&#xe926;" glyph-name="eye-closed" d="M138.629 878.206l819.142-836.249-72.389-73.934-178.795 182.528c-62.392-26.576-127.489-41.026-194.566-41.026-193.774 0-371.644 117.554-512.001 313.589 66.582 92.932 141.643 167.877 222.742 221.365v0l-156.524 159.792 72.389 73.934zM335.769 529.114c-18.015-31.056-28.54-67.232-28.54-106.001 0-115.466 91.657-209.071 204.794-209.071 37.944 0 73.313 10.813 103.766 29.237v0l-77.635 79.257c-8.381-2.324-17.058-3.974-26.131-3.974-56.552 0-102.413 46.921-102.413 104.551 0 9.297 1.584 18.189 3.795 26.744v0zM512.009 736.702c193.774 0 371.677-117.554 511.969-313.589-48.997-68.444-102.645-127.052-159.856-174.714v0l-148.638 151.741c0.825 7.545 1.32 15.225 1.32 22.972 0 115.466-91.691 209.071-204.794 209.071-7.589 0-15.111-0.505-22.502-1.348v0l-90.304 92.224c36.854 8.858 74.501 13.642 112.807 13.642z" />
<glyph unicode="&#xe927;" glyph-name="eye" d="M511.984 732.438c193.776 0 371.681-117.283 512.005-312.865-140.325-195.582-318.23-312.899-512.005-312.899-193.742 0-371.615 117.316-511.973 312.899 140.358 195.582 318.23 312.865 511.973 312.865zM511.984 628.161c-113.104 0-204.796-93.389-204.796-208.587s91.691-208.587 204.796-208.587c113.104 0 204.796 93.389 204.796 208.587s-91.691 208.587-204.796 208.587zM511.984 523.87c56.487 0 102.414-46.711 102.414-104.311 0-57.499-45.928-104.278-102.414-104.278-56.552 0-102.382 46.779-102.382 104.278 0 57.6 45.83 104.311 102.382 104.311z" />
<glyph unicode="&#xe928;" glyph-name="facebook" d="M731.889 628.402h-162.101v106.296c0 39.869 26.494 49.213 45.117 49.213h114.296v175.475l-157.493 0.576c-174.772 0-214.513-130.87-214.513-214.576v-116.984h-101.177v-180.723h101.177v-511.643h212.593v511.643h143.478l18.623 180.723z" />
<glyph unicode="&#xe929;" glyph-name="filters" d="M398.242 277.342c74.304 0 137.319-47.509 160.706-113.789v0h436.555c15.616 0 28.446-12.794 28.446-28.41v0-56.894c0-15.654-12.83-28.448-28.446-28.448v0h-436.555c-23.387-66.243-86.402-113.752-160.706-113.752-74.342 0-137.319 47.509-160.78 113.752v0h-208.948c-15.652 0-28.446 12.794-28.446 28.448v0 56.894c0 15.616 12.794 28.41 28.446 28.41v0h208.948c23.461 66.279 86.438 113.789 160.78 113.789zM398.242 192c-47.142 0-85.339-38.198-85.339-85.304 0-47.143 38.197-85.342 85.339-85.342 47.104 0 85.339 38.198 85.339 85.342 0 47.106-38.234 85.304-85.339 85.304zM739.525 618.617c74.342 0 137.319-47.473 160.744-113.752v0h95.236c15.616 0 28.446-12.794 28.446-28.41v0-56.894c0-15.654-12.83-28.448-28.446-28.448v0h-95.236c-23.425-66.243-86.402-113.789-160.744-113.789-74.304 0-137.319 47.547-160.744 113.789v0h-550.267c-15.652 0-28.446 12.794-28.446 28.448v0 56.894c0 15.616 12.794 28.41 28.446 28.41v0h550.267c23.425 66.279 86.438 113.752 160.744 113.752zM739.525 533.312c-47.142 0-85.339-38.198-85.339-85.304 0-47.143 38.197-85.342 85.339-85.342 47.104 0 85.339 38.198 85.339 85.342 0 47.106-38.234 85.304-85.339 85.304zM284.475 959.95c74.304 0 137.319-47.509 160.744-113.789v0h550.267c15.652 0 28.446-12.794 28.446-28.41v0-56.894c0-15.654-12.794-28.448-28.446-28.448v0h-550.267c-23.425-66.279-86.438-113.789-160.744-113.789-74.342 0-137.319 47.509-160.744 113.789v0h-95.236c-15.616 0-28.446 12.794-28.446 28.448v0 56.894c0 15.616 12.83 28.41 28.446 28.41v0h95.236c23.425 66.279 86.402 113.789 160.744 113.789zM284.475 874.608c-47.142 0-85.339-38.198-85.339-85.304 0-47.143 38.197-85.342 85.339-85.342 47.104 0 85.339 38.198 85.339 85.342 0 47.106-38.234 85.304-85.339 85.304z" />
<glyph unicode="&#xe92a;" glyph-name="train" d="M237.717 146.842h51.828l-124.969-210.814h140.167l124.969 210.814h158.453l124.969-210.814h140.167l-124.969 210.814h57.94c51.828 0 91.427 39.138 91.427 90.358v602.344c0 60.257-33.542 120.457-365.704 120.457s-365.704-60.257-365.704-120.457v-602.344c0-51.22 39.6-90.358 91.428-90.358zM755.818 207.045c-33.542 0-60.97 27.106-60.97 60.257s27.428 60.257 60.97 60.257c33.542 0 60.97-27.107 60.97-60.257-0.057-33.15-27.485-60.257-60.97-60.257zM420.569 869.702h182.852c18.286 0 30.456-12.029 30.456-30.099s-12.172-30.099-30.456-30.099h-182.852c-18.286 0-30.456 12.029-30.456 30.099 0 18.016 12.172 30.099 30.456 30.099zM207.261 628.73c0 51.222 39.599 90.358 91.427 90.358h426.616c51.828 0 91.427-39.136 91.427-90.358v-120.457c0-48.171-39.599-90.357-91.427-90.357h-426.616c-51.828 0-91.427 42.186-91.427 90.357v120.457zM268.175 327.558c33.542 0 60.97-27.107 60.97-60.257s-27.428-60.257-60.97-60.257c-33.542 0-60.97 27.106-60.97 60.257 0.057 33.15 27.485 60.257 60.97 60.257z" />
<glyph unicode="&#xe92b;" glyph-name="tiktok" horiz-adv-x="1065" d="M747.147 930.115h-173.322v-664.81c0-79.209-66.66-144.278-149.616-144.278s-149.618 65.066-149.618 144.278c0 77.796 65.179 141.45 145.173 144.278v166.911c-176.282-2.829-318.494-140.034-318.494-311.189 0-172.569 145.173-311.19 324.419-311.19s324.418 140.035 324.418 311.19v340.895c65.179-45.265 145.175-72.139 229.612-73.555v166.911c-130.356 4.242-232.571 106.087-232.571 230.561z" />
<glyph unicode="&#xe92c;" glyph-name="flickr" d="M227.164 703.976c125.364 0 227.114-101.686 227.114-227.050s-101.75-227.050-227.114-227.050c-125.428 0-227.114 101.686-227.114 227.050s101.686 227.050 227.114 227.050zM796.861 703.976c125.428 0 227.114-101.686 227.114-227.050s-101.686-227.050-227.114-227.050c-125.364 0-227.050 101.686-227.050 227.050s101.686 227.050 227.050 227.050z" />
<glyph unicode="&#xe92d;" glyph-name="folder" d="M0.022 74.687c0-13.665 11.548-24.892 25.603-24.892h972.75c14.055 0 25.603 11.228 25.603 24.892v597.308c0 13.665-11.548 24.86-25.603 24.86h-537.565l-153.585 149.351h-281.6c-14.055 0-25.603-11.196-25.603-24.892v-746.626z" />
<glyph unicode="&#xe92e;" glyph-name="forward" d="M924.030 956.842h-190.162c-17.443 0-31.7-14.345-31.7-31.808v-386.896l-590.179 419.441c-3.717 1.558-7.762 2.417-12.011 2.417-17.524 0-31.7-14.224-31.7-31.808v-960.372c0-17.544 14.176-31.808 31.7-31.808 4.248 0 8.293 0.902 12.011 2.459l590.179 419.399v-386.896c0-17.46 14.257-31.808 31.7-31.808h190.162c17.403 0 31.7 14.345 31.7 31.808v954.060c0 17.46-14.297 31.808-31.7 31.808z" />
<glyph unicode="&#xe92f;" glyph-name="chevron-fine-down" d="M541.653 194.638c-16.376-16.384-42.927-16.384-59.311 0l-427.633 427.637c-16.382 16.382-16.382 42.935 0 59.315l19.774 19.774c16.38 16.382 42.937 16.382 59.319 0l378.199-378.202 378.204 378.202c16.376 16.382 42.927 16.382 59.311 0l19.774-19.774c16.384-16.382 16.384-42.933 0-59.315l-427.637-427.637z" />
<glyph unicode="&#xe930;" glyph-name="gauge" d="M512.005 852.198c136.763 0 265.343-52.586 362.050-148.054 96.707-95.435 149.928-222.39 149.928-357.42 0-110.838-36.393-215.91-102.712-302.913v0l-73.182 72.188c47.612 67.238 73.513 146.947 73.513 230.727 0 108.004-42.596 209.562-119.969 285.95-77.34 76.355-180.185 118.424-289.628 118.424-109.377 0-212.288-42.069-289.628-118.424-77.34-76.388-119.936-177.945-119.936-285.95 0-83.779 25.868-163.488 73.446-230.758v0l-73.116-72.155c-66.352 86.97-102.746 192.077-102.746 302.913 0 135.030 53.254 261.985 149.961 357.42 96.674 95.468 225.255 148.054 362.018 148.054zM652.82 461.288c0 0-53.121-242.318-74.303-278.558s-68.167-48.646-104.89-27.709c-36.724 20.904-49.294 67.271-28.112 103.51 21.215 36.24 207.306 202.756 207.306 202.756zM204.834 397.47c28.276 0 51.175-22.63 51.175-50.534 0-27.872-22.899-50.534-51.175-50.534s-51.208 22.663-51.208 50.534c0 27.905 22.932 50.534 51.208 50.534zM819.225 397.479c28.243 0 51.175-22.63 51.175-50.534 0-27.872-22.932-50.534-51.175-50.534-28.31 0-51.208 22.663-51.208 50.534 0 27.905 22.899 50.534 51.208 50.534zM258.579 597.018c19.995 19.732 52.429 19.732 72.424 0 19.995-19.699 19.962-51.707 0-71.439-19.995-19.732-52.429-19.732-72.424 0-19.962 19.732-19.962 51.739 0 71.439zM693.051 597.032c19.995 19.732 52.396 19.732 72.39 0 19.962-19.699 19.995-51.707 0-71.439s-52.429-19.732-72.39 0c-19.995 19.732-19.995 51.707 0 71.439zM512.009 700.62c28.243 0 51.208-22.63 51.208-50.534s-22.965-50.502-51.208-50.502c-28.276 0-51.208 22.597-51.208 50.502s22.932 50.534 51.208 50.534z" />
<glyph unicode="&#xe931;" glyph-name="grid-2x2" d="M418.461 391.121c20.163 0 36.659-16.496 36.659-36.659v0-381.767c0-20.163-16.496-36.659-36.659-36.659v0h-381.766c-20.163 0-36.659 16.496-36.659 36.659v0 381.767c0 20.163 16.496 36.659 36.659 36.659v0zM987.303 391.121c20.163 0 36.659-16.496 36.659-36.659v0-381.767c0-20.163-16.496-36.659-36.659-36.659v0h-381.766c-20.163 0-36.659 16.496-36.659 36.659v0 381.767c0 20.163 16.496 36.659 36.659 36.659v0zM418.461 959.962c20.163 0 36.659-16.496 36.659-36.659v0-381.767c0-20.163-16.496-36.659-36.659-36.659v0h-381.766c-20.163 0-36.659 16.496-36.659 36.659v0 381.767c0 20.163 16.496 36.659 36.659 36.659v0zM987.303 959.962c20.163 0 36.659-16.496 36.659-36.659v0-381.767c0-20.163-16.496-36.659-36.659-36.659v0h-381.766c-20.163 0-36.659 16.496-36.659 36.659v0 381.767c0 20.163 16.496 36.659 36.659 36.659v0z" />
<glyph unicode="&#xe932;" glyph-name="grid-3x3" d="M199.144 163.567c15.617 0 28.447-12.794 28.447-28.447v0-170.647c0-15.653-12.83-28.447-28.447-28.447v0h-170.647c-15.653 0-28.447 12.794-28.447 28.447v0 170.647c0 15.653 12.794 28.447 28.447 28.447v0zM995.527 163.567c15.617 0 28.447-12.794 28.447-28.447v0-170.647c0-15.653-12.83-28.447-28.447-28.447v0h-170.647c-15.653 0-28.447 12.794-28.447 28.447v0 170.647c0 15.653 12.794 28.447 28.447 28.447v0zM597.329 163.567c15.653 0 28.447-12.794 28.447-28.447v0-170.647c0-15.653-12.794-28.447-28.447-28.447v0h-170.647c-15.617 0-28.447 12.794-28.447 28.447v0 170.647c0 15.653 12.83 28.447 28.447 28.447v0zM199.144 561.747c15.617 0 28.447-12.794 28.447-28.447v0-170.647c0-15.617-12.83-28.447-28.447-28.447v0h-170.647c-15.653 0-28.447 12.83-28.447 28.447v0 170.647c0 15.653 12.794 28.447 28.447 28.447v0zM995.527 561.747c15.617 0 28.447-12.794 28.447-28.447v0-170.647c0-15.617-12.83-28.447-28.447-28.447v0h-170.647c-15.653 0-28.447 12.83-28.447 28.447v0 170.647c0 15.653 12.794 28.447 28.447 28.447v0zM597.329 561.747c15.653 0 28.447-12.794 28.447-28.447v0-170.647c0-15.617-12.794-28.447-28.447-28.447v0h-170.647c-15.617 0-28.447 12.83-28.447 28.447v0 170.647c0 15.653 12.83 28.447 28.447 28.447v0zM199.144 959.947c15.617 0 28.447-12.794 28.447-28.447v0-170.647c0-15.653-12.83-28.447-28.447-28.447v0h-170.647c-15.653 0-28.447 12.794-28.447 28.447v0 170.647c0 15.653 12.794 28.447 28.447 28.447v0zM995.52 959.95c15.653 0 28.447-12.83 28.447-28.447v0-170.647c0-15.653-12.794-28.447-28.447-28.447v0h-170.647c-15.653 0-28.447 12.794-28.447 28.447v0 170.647c0 15.617 12.794 28.447 28.447 28.447v0zM597.329 959.947c15.653 0 28.447-12.794 28.447-28.447v0-170.647c0-15.653-12.794-28.447-28.447-28.447v0h-170.647c-15.617 0-28.447 12.794-28.447 28.447v0 170.647c0 15.653 12.83 28.447 28.447 28.447v0z" />
<glyph unicode="&#xe933;" glyph-name="headphones" d="M227.598 277.366c62.577 0 113.753-51.212 113.753-113.789v0-113.752c0-62.577-51.176-113.789-113.753-113.789v0h-28.447c-15.617 0-28.447 12.83-28.447 28.447v0 284.435c0 15.617 12.83 28.447 28.447 28.447v0zM824.871 277.366c15.653 0 28.447-12.83 28.447-28.447v-284.435c0-15.617-12.794-28.447-28.447-28.447h-28.447c-62.577 0-113.753 51.212-113.753 113.789v113.752c0 62.577 51.176 113.789 113.753 113.789h28.447zM512.018 959.962c282.275 0 511.944-229.666 511.944-511.938v0-483.529c0-15.653-12.794-28.447-28.447-28.447v0h-56.858c-15.653 0-28.447 12.794-28.447 28.447v0 483.529c0 219.55-178.64 398.151-398.191 398.151-219.589 0-398.191-178.601-398.191-398.151v0-483.529c0-15.653-12.794-28.447-28.447-28.447v0h-56.895c-15.617 0-28.447 12.794-28.447 28.447v0 483.529c0 282.272 229.669 511.938 511.982 511.938z" />
<glyph unicode="&#xe934;" glyph-name="heart" d="M940.678 419.073c111.080 109.059 111.080 286.075 0 395.171-111.008 109.023-291.192 108.987-402.199-0.072-9.789-9.564-18.403-19.885-26.432-30.458-8.065 10.611-16.717 20.896-26.506 30.532-111.008 109.023-291.192 108.987-402.199-0.072-111.117-109.133-111.080-286.039-0.036-395.063l426.689-419.097 430.685 419.061z" />
<glyph unicode="&#xe935;" glyph-name="history" d="M511.982 959.962c141.174 0 269.188-57.41 361.862-150.124 92.711-92.678 150.12-220.733 150.12-361.838 0-282.322-229.633-511.962-511.982-511.962-139.085 0-267.905 56.676-361.679 150.271v0l80.357 80.36c72.952-72.77 173.141-116.873 281.323-116.873 219.589 0 398.229 178.646 398.229 398.206 0 109.798-44.688 209.331-116.797 281.443-72.109 72.074-171.639 116.764-281.432 116.764-121.488 0-233.995-55.358-308.45-146.605v0l137.838-137.843h-341.333v341.309l122.588-122.556c95.717 112.034 237.112 179.453 389.357 179.453zM511.993 732.438v-227.551h113.789v-113.794h-227.542v341.345h113.753z" />
<glyph unicode="&#xe936;" glyph-name="home-narrow" d="M512 959.944l-511.944-511.944h127.966v-511.944h255.971v192.010c0 70.684 57.323 127.966 128.007 127.966s128.007-57.282 128.007-127.966v-192.010h255.93v511.944h128.007l-511.944 511.944z" />
<glyph unicode="&#xe937;" glyph-name="home-wide" d="M921.575 448v149.322h-153.589l-256.002 248.892-511.973-497.783h102.382v-298.644h307.209v248.892h204.762v-248.892h307.209v298.644h102.414z" />
<glyph unicode="&#xe938;" glyph-name="image" d="M947.176 846.214c42.366 0 76.813-33.489 76.813-74.677v0-647.073c0-41.188-34.447-74.677-76.813-74.677v0h-870.384c-42.332 0-76.78 33.489-76.78 74.677v0 647.073c0 41.188 34.447 74.677 76.78 74.677v0zM921.571 746.644h-819.176v-597.288l237.896 231.28c9.932 9.656 26.265 9.656 36.197 0v0l84.304-81.958 460.781 447.966zM297.23 632.871c44.79 0 81.081-35.778 81.081-79.977s-36.291-80.012-81.081-80.012c-44.79 0-81.081 35.813-81.081 80.012s36.291 79.977 81.081 79.977z" />
<glyph unicode="&#xe939;" glyph-name="instagram" d="M572.123 959.984c85.779-0.191 105.451-0.938 150.946-3.018 54.531-2.496 91.716-11.137 124.295-23.809 33.666-13.121 62.211-30.594 90.693-59.074s45.955-56.962 59.074-90.693c12.673-32.577 21.313-69.764 23.809-124.295 0.521-11.374 0.957-21.135 1.322-30.715l0.405-11.506c0.87-27.076 1.22-57.265 1.316-122.098v-93.504c-0.090-60.184-0.398-90.526-1.137-116.242l-0.374-11.633c-0.405-11.488-0.909-22.816-1.533-36.465-2.496-54.531-11.137-91.78-23.809-124.295-13.121-33.729-30.594-62.211-59.074-90.693s-57.027-46.018-90.693-59.074c-32.577-12.673-69.764-21.313-124.295-23.809-47.77-2.184-67.070-2.898-164.321-3.042h-93.524c-60.204 0.090-90.537 0.398-116.257 1.137l-11.635 0.374c-11.492 0.405-22.828 0.909-36.492 1.533-54.466 2.496-91.716 11.137-124.23 23.809-33.666 13.057-62.276 30.594-90.693 59.074-28.482 28.482-46.018 56.962-59.074 90.693-12.673 32.514-21.313 69.764-23.809 124.295-2.081 45.496-2.826 65.213-3.018 150.969v120.249c0.191 85.779 0.938 105.451 3.018 150.946 2.496 54.531 11.137 91.716 23.809 124.295 13.057 33.729 30.594 62.211 59.074 90.693 28.417 28.482 57.027 45.955 90.693 59.074 32.514 12.673 69.764 21.313 124.23 23.809 45.548 2.081 65.229 2.826 151.011 3.018zM543.746 867.797h-63.518c-73.577-0.066-105.232-0.398-133.622-1.31l-11.273-0.396c-9.402-0.357-19.015-0.783-30.268-1.29-49.922-2.304-76.996-10.625-95.045-17.665-23.937-9.281-40.962-20.353-58.882-38.274s-29.058-34.946-38.337-58.882c-6.977-18.049-15.296-45.122-17.6-95.045-0.416-9.003-0.777-16.955-1.089-24.591l-0.624-16.951c-0.915-28.39-1.223-60.045-1.283-133.622v-63.518c0.060-73.577 0.368-105.232 1.283-133.622l0.399-11.273c0.362-9.402 0.795-19.015 1.316-30.268 2.304-49.922 10.625-77.060 17.6-95.045 9.281-23.937 20.417-40.962 38.337-58.882s34.946-28.993 58.882-38.274c18.049-7.040 45.122-15.361 95.045-17.665 47.266-2.129 65.573-2.835 160.995-2.979h91.852c95.423 0.144 113.729 0.851 160.995 2.979 49.858 2.304 76.996 10.625 95.045 17.665 23.937 9.281 40.962 20.353 58.882 38.274s28.993 34.946 38.337 58.882c6.977 17.984 15.296 45.122 17.6 95.045 2.027 45.016 2.72 63.764 2.895 147.877v118.090c-0.176 84.114-0.869 102.861-2.895 147.877-2.304 49.922-10.625 76.996-17.6 95.045-9.344 23.937-20.417 40.962-38.337 58.882s-34.946 28.993-58.882 38.274c-18.049 7.040-45.187 15.361-95.045 17.665-11.254 0.507-20.866 0.933-30.268 1.29l-11.273 0.396c-28.39 0.912-60.045 1.244-133.622 1.31zM511.974 710.9c145.224 0 262.925-117.637 262.925-262.861 0-145.287-117.702-262.925-262.925-262.925s-262.925 117.637-262.925 262.925c0 145.224 117.702 262.861 262.925 262.861zM511.974 618.671c-94.277 0-170.696-76.42-170.696-170.632 0-94.277 76.42-170.696 170.696-170.696s170.696 76.42 170.696 170.696c0 94.212-76.42 170.632-170.696 170.632zM785.3 782.774c33.921 0 61.443-27.522 61.443-61.443s-27.522-61.443-61.443-61.443c-33.921 0-61.443 27.522-61.443 61.443s27.522 61.443 61.443 61.443z" />
<glyph unicode="&#xe93a;" glyph-name="chevron-fine-up" d="M541.653 701.362c-16.376 16.384-42.927 16.384-59.311 0l-427.633-427.637c-16.382-16.382-16.382-42.935 0-59.315l19.774-19.774c16.38-16.382 42.937-16.382 59.319 0l378.199 378.202 378.204-378.202c16.376-16.382 42.927-16.382 59.311 0l19.774 19.774c16.384 16.382 16.384 42.933 0 59.315l-427.637 427.637z" />
<glyph unicode="&#xe93b;" glyph-name="link-away" d="M1023.992 561.782l-455.112 398.214v-232.909c-568.871-136.635-568.871-791.076-568.871-791.076s198.007 460.025 568.871 460.025v-232.469l455.112 398.214z" />
<glyph unicode="&#xe93c;" glyph-name="link" d="M309.155 570.201l81.153-81.181-263.717-263.892 162.267-162.397 263.68 263.892 81.153-81.181-283.977-284.206c-16.23-16.244-37.821-25.198-60.856-25.198-22.996 0-44.624 8.954-60.856 25.198v0l-202.826 202.988c-16.23 16.244-25.14 37.889-25.14 60.904s8.91 44.661 25.14 60.904v0l283.977 284.167zM643.547 661.261l81.116-81.181-344.241-344.516-81.116 81.218 344.241 344.479zM674.255 935.605c32.461 32.487 89.248 32.487 121.71 0v0l202.826-202.988c16.23-16.244 25.177-37.852 25.177-60.904s-8.947-44.661-25.177-60.904v0l-284.014-284.167-81.078 81.181 263.68 263.892-162.267 162.397-263.68-263.928-81.116 81.218z" />
<glyph unicode="&#xe93d;" glyph-name="linkedin" d="M232.485 618.911v-660.288h-219.583v660.288h219.583zM771.236 634.426c144.384 0 252.736-94.336 252.736-297.216v0-378.559h-219.456v353.28c0 88.704-31.807 149.376-111.295 149.376-60.544 0-96.703-41.023-112.639-80.383-5.76-14.143-7.231-33.664-7.231-53.503v0-368.767h-219.456l0.028 6.217c0.006 1.354 0.013 2.92 0.021 4.69l0.057 12.981c0.21 48.364 0.681 163.471 0.949 283.045l0.076 37.836 0.060 37.698c0.009 6.247 0.016 12.471 0.022 18.66l-0.013 122.026c-0.118 68.68-0.471 121.039-1.203 137.13v0h219.456v-93.504c29.248 45.055 81.408 108.991 197.887 108.991zM124.113 937.394c75.136 0 121.344-49.344 122.752-114.175 0-63.295-47.616-114.112-124.159-114.112v0h-1.471c-73.6 0-121.216 50.815-121.216 114.112 0 64.831 49.087 114.175 124.096 114.175z" />
<glyph unicode="&#xe93e;" glyph-name="lock" d="M362.662 550.401v153.582c0 84.693 66.978 153.582 149.321 153.582s149.354-68.889 149.354-153.582v-153.582h-298.675zM511.984 217.635c-41.22 0-74.645 34.379-74.645 76.775 0 42.429 33.425 76.807 74.645 76.807 41.252 0 74.677-34.379 74.677-76.807 0-42.396-33.425-76.775-74.677-76.775v0zM885.304 550.401h-124.429v153.582c0 141.143-111.662 255.991-248.891 255.991s-248.891-114.849-248.891-255.991v-153.582h-124.397c-13.698 0-24.892-11.547-24.892-25.602v-179.184c0-226.199 178.255-409.574 398.181-409.574s398.213 183.375 398.213 409.574v179.184c0 14.055-11.195 25.602-24.892 25.602v0z" />
<glyph unicode="&#xe93f;" glyph-name="microphone-mute" d="M150.892 893.784l792.27-819.162-70.011-72.424-153.968 159.201c-45.313-35.14-99.082-58.962-157.637-67.705v0-55.299l99.017-102.382h-297.085l99.017 102.382v55.299c-167.689 24.977-297.085 174.114-297.085 354.299v0h99.049c0-141.152 111.049-256.006 247.56-256.006 50.387 0 97.199 15.771 136.321 42.63v0l-72.533 74.997c-19.37-9.635-40.941-15.21-63.788-15.21-81.69 0-148.543 69.125-148.543 153.591v0 81.2l-282.597 292.169 70.011 72.424zM858.638 447.995c0-52.032-11.009-101.36-30.379-146.002v0l-77.319 79.947c5.457 21.117 8.647 43.191 8.647 66.055v0zM512.025 959.969c81.69 0 148.543-69.091 148.543-153.591v0-330.972l-297.085 307.182v23.789c0 84.499 66.852 153.591 148.543 153.591z" />
<glyph unicode="&#xe940;" glyph-name="microphone-on" d="M256.006 448.005c0-141.147 114.849-255.999 255.994-255.999s255.994 114.852 255.994 255.999v0h102.378c0-180.179-133.787-329.311-307.167-354.288v0-55.298l102.378-102.38h-307.167l102.378 102.38v55.298c-173.346 24.976-307.167 174.109-307.167 354.288v0zM512.006 959.961c84.463 0 153.583-69.089 153.583-153.586v0-358.379c0-84.464-69.121-153.586-153.583-153.586s-153.583 69.122-153.583 153.586v0 358.379c0 84.497 69.121 153.586 153.583 153.586z" />
<glyph unicode="&#xe941;" glyph-name="more-horizontal" d="M256.044 447.988c0-70.387-57.572-127.99-128.011-127.99-70.397 0-127.971 57.603-127.971 127.99s57.572 127.99 127.971 127.99c70.439 0 128.011-57.603 128.011-127.99zM640.016 447.988c0-70.387-57.572-127.99-128.011-127.99-70.397 0-127.971 57.603-127.971 127.99s57.572 127.99 127.971 127.99c70.439 0 128.011-57.603 128.011-127.99zM1023.988 447.988c0-70.387-57.572-127.99-128.011-127.99-70.397 0-127.971 57.603-127.971 127.99s57.572 127.99 127.971 127.99c70.439 0 128.011-57.603 128.011-127.99z" />
<glyph unicode="&#xe942;" glyph-name="more-vertical" d="M512 192.018c70.387 0 127.99-57.572 127.99-128.011 0-70.397-57.603-127.971-127.99-127.971s-127.99 57.572-127.99 127.971c0 70.439 57.603 128.011 127.99 128.011zM512 575.99c70.387 0 127.99-57.572 127.99-128.011 0-70.397-57.603-127.971-127.99-127.971s-127.99 57.572-127.99 127.971c0 70.439 57.603 128.011 127.99 128.011zM512 959.962c70.387 0 127.99-57.572 127.99-128.011 0-70.397-57.603-127.971-127.99-127.971s-127.99 57.572-127.99 127.971c0 70.439 57.603 128.011 127.99 128.011z" />
<glyph unicode="&#xe943;" glyph-name="whatsapp" d="M0-64l71.979 262.954c-44.416 76.973-67.755 164.224-67.712 253.696 0.128 279.724 227.754 507.35 507.433 507.35 135.725-0.043 263.126-52.907 358.954-148.821 95.789-95.915 148.525-223.403 148.48-358.996-0.128-279.766-227.754-507.392-507.434-507.392-84.906 0.042-168.576 21.331-242.686 61.779l-269.013-70.57zM281.471 98.432c71.508-42.454 139.777-67.882 230.058-67.926 232.448 0 421.802 189.184 421.93 421.76 0.086 233.046-188.374 421.974-421.587 422.060-232.619 0-421.845-189.184-421.931-421.717-0.043-94.934 27.776-166.016 74.496-240.384l-42.624-155.648 159.658 41.856zM767.315 331.562c-3.158 5.293-11.606 8.448-24.32 14.806-12.672 6.358-75.008 37.034-86.656 41.258-11.603 4.224-20.051 6.358-28.544-6.355-8.448-12.672-32.768-41.261-40.147-49.709-7.382-8.448-14.806-9.514-27.478-3.155-12.672 6.355-53.546 19.712-101.974 62.931-37.674 33.622-63.146 75.136-70.528 87.853-7.379 12.672-0.768 19.539 5.549 25.856 5.715 5.674 12.672 14.803 19.027 22.227 6.445 7.341 8.534 12.63 12.8 21.12 4.224 8.448 2.134 15.872-1.066 22.23-3.2 6.314-28.544 68.736-39.082 94.123-10.326 24.704-20.781 21.376-28.544 21.76l-24.32 0.427c-8.448 0-22.187-3.157-33.793-15.872s-44.373-43.349-44.373-105.772c0-62.419 45.44-122.707 51.755-131.155 6.357-8.448 89.387-136.534 216.574-191.446 30.253-13.056 53.888-20.864 72.278-26.71 30.378-9.642 58.026-8.275 79.872-5.034 24.362 3.626 75.008 30.678 85.587 60.288 10.582 29.654 10.582 55.040 7.382 60.33z" />
<glyph unicode="&#xe944;" glyph-name="pause" d="M307.832 959.944c18.404 0 33.526-14.434 33.526-32.002v-959.883c0-17.568-15.122-32.002-33.526-32.002h-201.115c-18.449 0-33.526 14.434-33.526 32.002v959.883c0 17.568 15.079 32.002 33.526 32.002h201.115zM917.283 959.944c18.449 0 33.526-14.434 33.526-32.002v-959.883c0-17.568-15.079-32.002-33.526-32.002h-201.115c-18.404 0-33.526 14.434-33.526 32.002v959.883c0 17.568 15.122 32.002 33.526 32.002h201.115z" />
<glyph unicode="&#xe945;" glyph-name="x1" d="M781.91 878.767h143.936l-314.454-359.404 369.93-489.066h-289.651l-226.867 296.618-259.589-296.618h-144.022l336.341 384.422-354.876 464.047h297.008l205.069-271.119 237.178 271.119zM731.395 116.451h79.757l-514.826 680.688h-85.587l520.655-680.688z" />
<glyph unicode="&#xe946;" glyph-name="phone" d="M958.003 278.291c-6.341 1.503-12.903 2.457-19.686 2.457-0.294 0-0.55-0.073-0.88-0.073-96.888 12.17-187.507 44.504-267.459 92.819l-123.942-126.691c-91.61 61.769-171.010 144.324-232.78 229.628v0l124.125 126.727c-48.352 79.951-80.575 172-92.783 268.888 0 0.33 0.147 1.282 0.147 1.576 0 6.782-0.99 13.71-2.493 20.052-8.908 37.721-42.597 66.279-83.104 66.279h-173.503c-46.555 0-84.314-37.244-85.414-83.581 0-0.66-0.183-1.356-0.183-2.053 0-4.986 0.622-9.788 1.429-14.517 17.889-186.553 85.304-357.858 188.716-501.265 64.518-89.409 143.077-167.895 232.486-232.34 143.554-103.485 314.895-170.754 500.898-188.68 4.803-0.843 9.715-1.467 14.736-1.467 0.696 0 1.393 0.183 2.127 0.22 46.299 1.137 83.507 38.821 83.507 85.378v173.503c0 40.471-28.19 74.232-65.949 83.141z" />
<glyph unicode="&#xe947;" glyph-name="pin" d="M491.897 414.012c-74.633 0-135.090 57.31-135.090 127.981s60.459 128.013 135.090 128.013c74.633 0 135.090-57.342 135.090-128.013s-60.459-127.981-135.090-127.981zM797.602 827.153c-168.838 165.89-442.572 165.89-611.374 0-168.872-165.89-168.872-434.917 0-600.774l305.669-298.754 305.705 298.754c168.838 165.857 168.838 434.884 0 600.774z" />
<glyph unicode="&#xe948;" glyph-name="pinterest" d="M548.352 959.987c-279.481 0-420.342-200.316-420.342-367.415 0-101.182 38.207-191.163 120.381-224.699 13.44-5.503 25.6-0.192 29.44 14.719 2.752 10.303 9.151 36.352 12.031 47.231 3.904 14.719 2.431 19.903-8.448 32.767-23.68 27.967-38.783 64.062-38.783 115.325 0 148.669 111.165 281.722 289.529 281.722 157.948 0 244.73-96.509 244.73-225.403 0-169.596-75.070-312.76-186.492-312.76-61.566 0-107.517 50.943-92.798 113.342 17.664 74.494 51.903 154.876 51.903 208.699 0 48.126-25.792 88.318-79.294 88.318-62.91 0-113.469-65.086-113.469-152.252 0-55.551 18.816-93.053 18.816-93.053s-64.383-272.761-75.711-320.505c-22.463-95.165-3.391-211.771-1.728-223.547 0.895-6.976 9.919-8.64 14.016-3.328 5.695 7.552 80.638 100.030 106.173 192.444 7.168 26.176 41.343 161.725 41.343 161.725 20.479-39.040 80.19-73.342 143.677-73.342 189.051 0 317.368 172.347 317.368 403.063 0 174.459-147.772 336.952-372.343 336.952z" />
<glyph unicode="&#xe949;" glyph-name="play" d="M108.724 944.762c35.272 20.271 77.552 20.363 112.871 0l693.677-399.298c35.364-20.315 56.435-56.767 56.481-97.447 0-40.68-21.115-77.13-56.435-97.493l-693.724-399.262c-17.705-10.161-37.070-15.262-56.435-15.262-19.411 0-38.776 5.103-56.435 15.262-35.364 20.363-56.482 56.767-56.482 97.493v798.56c0 40.679 21.072 77.13 56.482 97.447zM165.309 890.559c-9.914 0-17.844-3.631-21.809-5.93-6.455-3.723-21.578-14.894-21.578-37.324v-798.56c0-22.478 15.077-33.602 21.578-37.324 6.501-3.77 23.746-11.17 43.249 0l693.724 399.262c19.504 11.249 21.579 29.865 21.533 37.359 0 7.446-2.075 26.062-21.579 37.278l-693.724 399.309c-7.653 4.413-14.939 5.93-21.394 5.93z" />
<glyph unicode="&#xe94a;" glyph-name="plus" d="M1023.975 504.877h-455.097v455.097h-113.756v-455.097h-455.097v-113.792h455.097v-455.060h113.756v455.060h455.097z" />
<glyph unicode="&#xe94b;" glyph-name="printer" d="M796.434 163.566v-227.553h-568.867v227.553h568.867zM767.985 959.987c15.654 0 28.448-12.795 28.448-28.448v0-312.864h199.105c15.654 0 28.448-12.795 28.448-28.448v0-511.969c0-15.654-12.795-28.448-28.448-28.448v0h-142.207v142.207c0 15.618-12.831 28.412-28.448 28.412v0h-625.765c-15.618 0-28.448-12.795-28.448-28.412v0-142.207h-142.207c-15.654 0-28.448 12.795-28.448 28.448v0 511.969c0 15.654 12.795 28.448 28.448 28.448v0h199.105v312.864c0 15.654 12.795 28.448 28.448 28.448v0zM910.192 504.916h-113.795v-56.898h113.795v56.898zM739.535 903.090h-455.108v-284.416h455.108v284.416z" />
<glyph unicode="&#xe94c;" glyph-name="refresh" d="M341.324 334.218l-137.811-137.847c74.497-91.214 186.937-146.608 308.471-146.608 109.802 0 209.339 44.691 281.452 116.805 46.158 46.12 80.839 103.568 100.013 167.654v0h117.355c-21.776-95.503-69.951-181.107-136.931-248.087-92.681-92.753-220.702-150.13-361.887-150.13-152.256 0-293.66 67.457-389.419 179.421v0l-122.56-122.522v341.318h341.319zM511.981 959.993c152.292 0 293.696-67.457 389.457-179.459v0l122.56 122.56v-341.318h-341.319l137.811 137.847c-74.497 91.214-186.937 146.608-308.507 146.608-109.765 0-209.301-44.691-281.414-116.805-46.56-46.524-81.425-102.982-100.452-167.654v0h-117.025c21.703 95.797 69.951 180.998 137.041 248.087 92.681 92.717 220.702 150.13 361.849 150.13z" />
<glyph unicode="&#xe94d;" glyph-name="repeat" d="M1023.974 511.969c0-246.998-178.642-447.969-398.194-447.969v0h-284.403v-127.974l-170.65 191.982 170.65 191.982v-127.974h284.403c156.829 0 284.439 143.522 284.439 319.955v0zM682.683 959.95l170.65-191.982-170.65-192.022v128.014h-284.439c-156.829 0-284.403-143.522-284.403-319.955v0h-113.791c0 246.998 178.642 447.969 398.194 447.969v0h284.439v127.974z" />
<glyph unicode="&#xe94e;" glyph-name="return" d="M691.19 732.428h-486.363v170.653l-204.793-227.513 204.793-227.551v170.653h486.363c127.060 0 230.397-114.819 230.397-255.998s-103.337-255.998-230.397-255.998h-486.363v-113.757h486.363c183.512 0 332.777 165.888 332.777 369.755 0 203.904-149.265 369.755-332.777 369.755z" />
<glyph unicode="&#xe950;" glyph-name="rotate-clockwise" d="M1023.975 561.775h-341.309l137.807 137.844c-74.494 91.248-186.933 146.605-308.462 146.605-109.762 0-209.332-44.652-281.443-116.802-72.112-72.112-116.764-171.645-116.764-281.407 0-219.597 178.648-398.207 398.207-398.207 108.222 0 208.415 44.103 281.296 116.838l80.397-80.36c-93.778-93.52-222.603-150.271-361.693-150.271-282.36 0-512.002 229.679-512.002 512.002 0 141.144 57.447 269.161 150.126 361.839 92.715 92.715 220.697 150.126 361.876 150.126 152.251 0 293.652-67.455 389.408-179.455l122.557 122.593v-341.347z" />
<glyph unicode="&#xe951;" glyph-name="rotate-counter-clockwise" d="M0.005 561.778h341.318l-137.81 137.847c74.496 91.25 186.937 146.608 308.47 146.608 109.765 0 209.337-44.653 281.45-116.805 72.114-72.114 116.767-171.65 116.767-281.414 0-219.603-178.652-398.217-398.217-398.217-108.224 0-208.42 44.104-281.303 116.841l-80.399-80.362c93.781-93.523 222.608-150.275 361.702-150.275 282.367 0 512.015 229.684 512.015 512.015 0 141.147-57.448 269.168-150.13 361.848-92.717 92.717-220.702 150.13-361.885 150.13-152.255 0-293.659-67.457-389.418-179.459l-122.56 122.596v-341.355z" />
<glyph unicode="&#xe953;" glyph-name="search" d="M113.817 504.877c0 188.212 153.092 341.304 341.304 341.304s341.341-153.092 341.341-341.304c0-188.212-153.129-341.341-341.341-341.341s-341.304 153.129-341.304 341.341v0zM1023.975 16.457l-209.805 209.805c59.976 77.059 96.049 173.621 96.049 278.616 0 250.938-204.16 455.097-455.097 455.097s-455.097-204.16-455.097-455.097c0-250.938 204.16-455.097 455.097-455.097 104.995 0 201.52 36.111 278.616 96.049l209.805-209.805 80.432 80.432z" />
<glyph unicode="&#xe954;" glyph-name="send" d="M1023.989 448l-1023.978 455.101 76.81-341.307 511.973-113.794-511.973-113.794-76.81-341.307z" />
<glyph unicode="&#xe955;" glyph-name="share" d="M791.982 21.342c-46.372 0-84.010 38.199-84.010 85.342 0 47.107 37.638 85.306 84.010 85.306s84.010-38.199 84.010-85.306c0-47.143-37.638-85.342-84.010-85.342zM232.018 362.676c-46.408 0-84.010 38.199-84.010 85.306s37.602 85.342 84.010 85.342c46.372 0 84.010-38.235 84.010-85.342s-37.638-85.306-84.010-85.306zM791.982 874.62c46.372 0 84.010-38.235 84.010-85.342s-37.638-85.306-84.010-85.306c-46.372 0-84.010 38.199-84.010 85.306s37.638 85.342 84.010 85.342zM791.982 277.333c-40.634 0-77.948-14.7-106.998-39.116l-288.336 175.744c2.202 10.997 3.357 22.399 3.357 34.019 0 11.657-1.155 23.022-3.357 34.019l288.336 175.744c29.050-24.415 66.364-39.116 106.998-39.116 92.78 0 167.985 76.397 167.985 170.649s-75.206 170.685-167.985 170.685c-92.78 0-167.985-76.434-167.985-170.685 0-11.621 1.155-23.022 3.357-34.019l-288.336-175.708c-29.050 24.415-66.364 39.078-106.998 39.078-92.78 0-167.985-76.397-167.985-170.649s75.206-170.649 167.985-170.649c40.634 0 77.948 14.7 106.998 39.116l288.336-175.744c-2.202-10.997-3.357-22.399-3.357-34.019 0-94.25 75.206-170.649 167.985-170.649s167.985 76.397 167.985 170.649c0 94.214-75.206 170.649-167.985 170.649z" />
<glyph unicode="&#xe957;" glyph-name="shuffle" d="M588.084 370.923l51.839-78.493c23.61-35.836 84.651-68.423 128.059-68.423v0h85.349v112.019l170.66-168.027-170.66-167.991v111.983h-85.349c-82.489 0-178.58 51.354-223.453 119.416v0l-24.307 36.773 67.86 102.744zM853.346 895.993l170.624-167.991-170.624-168.027v112.019h-85.349c-43.407 0-104.449-32.587-128.096-68.423v0l-245.744-372.178c-44.946-68.063-141.001-119.38-223.49-119.38v0h-170.66v111.983h170.66c43.407 0 104.449 32.624 128.096 68.423v0l245.744 372.178c44.91 68.063 141.001 119.416 223.49 119.416v0h85.349v111.983zM170.676 783.993c82.417 0 178.542-51.318 223.49-119.38v0l24.27-36.809-67.824-102.744-51.839 78.529c-23.683 35.8-84.725 68.423-128.096 68.423v0h-170.66v111.983z" />
<glyph unicode="&#xe959;" glyph-name="star" d="M512 959.984l142.212-398.208h369.774l-312.875-227.552 117.319-398.208-316.429 227.552-316.429-227.552 117.319 398.208-312.875 227.552h369.774z" />
<glyph unicode="&#xe95a;" glyph-name="stopwatch" d="M561.803 959.956l99.534-102.38h-99.534v-105.944c72.525-9.37 138.923-38.867 193.998-82.913v0l69.445 71.465 70.375-72.422-69.477-71.431c52.509-69.353 84.072-156.259 84.072-250.721 0-225.844-178.634-409.587-398.197-409.587s-398.197 183.743-398.197 409.587c0 208.456 152.298 380.683 348.413 406.023v0 105.944h-99.534l99.534 102.38h99.566zM512.021 652.783c-164.68 0-298.631-137.815-298.631-307.173 0-169.424 133.951-307.207 298.631-307.207s298.663 137.783 298.663 307.207c0 169.358-133.983 307.173-298.663 307.173zM561.782 550.38l0.017-116.083c29.751-17.712 49.771-50.806 49.771-88.701 0-56.551-44.586-102.413-99.566-102.413-54.947 0-99.534 45.861-99.534 102.413 0 37.871 19.995 70.946 49.705 88.668l0.039 116.117h99.566z" />
<glyph unicode="&#xe95b;" glyph-name="tick-circle" d="M1023.971 448.017c0-282.283-229.71-511.993-511.994-511.993-282.282 0-511.958 229.71-511.958 511.993s229.675 511.957 511.958 511.957 511.994-229.675 511.994-511.957zM774.186 569.671c22.248 21.738 22.659 57.393 0.917 79.638-21.737 22.246-57.388 22.657-79.635 0.918l-273.815-267.577-93.893 91.754c-22.245 21.738-57.9 21.327-79.638-0.918s-21.327-57.902 0.918-79.639l172.612-168.68 352.534 344.503z" />
<glyph unicode="&#xe95c;" glyph-name="tick" d="M354.772 64.007l-354.758 363.353 80.836 82.701 273.924-280.539 588.357 602.447 80.836-82.776z" />
<glyph unicode="&#xe95d;" glyph-name="trolley" d="M370.701 163.582c62.986 0 114.065-50.956 114.065-113.791 0-62.797-51.079-113.755-114.065-113.755s-114.065 50.956-114.065 113.755c0 62.833 51.079 113.791 114.065 113.791zM798.361 163.582c62.986 0 114.065-50.956 114.065-113.791 0-62.797-51.079-113.755-114.065-113.755s-114.065 50.956-114.065 113.755c0 62.833 51.079 113.791 114.065 113.791zM142.619 959.962c40.716 0 79.191-28.118 91.465-66.831v0l14.993-46.924h713.237c21.645 0 41.268-10.741 52.513-28.667 11.171-18 12.164-40.289 2.61-59.682v0l-164.888-328.944c-11.098-22.473-35.829-37.796-61.296-37.796v0h-396.987l18.117-56.895h500.028v-113.755h-513.183c-40.754 0-79.229 28.118-91.502 66.831v0l-178.3 558.909h-129.39v113.755z" />
<glyph unicode="&#xe95f;" glyph-name="twitter" d="M1023.962 765.541c-37.629-16.703-78.138-27.965-120.632-33.086 43.389 25.983 76.667 67.195 92.41 116.216-40.637-24.063-85.626-41.533-133.43-50.941-38.333 40.829-92.986 66.3-153.332 66.3-116.024 0-210.097-94.009-210.097-210.033 0-16.446 1.855-32.51 5.44-47.869-174.58 8.767-329.448 92.345-432.993 219.44-18.047-30.974-28.414-67.068-28.414-105.592 0-72.89 37.053-137.143 93.433-174.835-34.43 1.087-66.811 10.559-95.161 26.302v-2.688c0-101.753 72.443-186.675 168.436-205.937-17.535-4.864-36.093-7.423-55.292-7.423-13.567 0-26.686 1.344-39.485 3.775 26.686-83.449 104.313-144.182 196.145-145.845-71.867-56.379-162.356-89.914-260.845-89.914-16.895 0-33.598 0.96-50.108 2.88 92.986-59.58 203.378-94.33 322.025-94.33 386.403 0 597.717 320.105 597.717 597.653 0 9.151-0.192 18.174-0.64 27.198 41.085 29.63 76.73 66.619 104.824 108.729z" />
<glyph unicode="&#xe960;" glyph-name="unlock" d="M512 217.593c-41.22 0-74.677 34.381-74.677 76.813 0 42.399 33.457 76.78 74.677 76.78 41.252 0 74.677-34.381 74.677-76.78 0-42.432-33.425-76.813-74.677-76.813v0zM760.892 703.978c0 141.188-111.663 256.010-248.892 256.010s-248.86-114.824-248.86-256.010v-153.594h-124.461c-13.665 0-24.893-11.516-24.893-25.571v-179.231c0-226.216 178.32-409.571 398.214-409.571 219.926 0 398.214 183.355 398.214 409.571v179.231c0 14.056-11.228 25.571-24.893 25.571h-522.643v153.594c0 84.732 66.979 153.594 149.322 153.594s149.322-68.861 149.322-153.594h99.57z" />
<glyph unicode="&#xe961;" glyph-name="user" d="M698.176 572.117c0-102.831-83.35-186.176-186.176-186.176-102.828 0-186.176 83.348-186.176 186.176 0 102.831 83.348 186.176 186.176 186.176 102.824 0 186.176-83.348 186.176-186.176zM512 944.467c-273.774 0-496.467-222.729-496.467-496.467s222.729-496.467 496.467-496.467c273.777 0 496.467 222.727 496.467 496.467s-222.684 496.467-496.467 496.467zM512 249.915c-145.732 0-269.314-45.675-313.174-109.042-77.719 79.255-125.742 187.665-125.742 307.132 0 242.001 196.915 438.917 438.916 438.917 242.003 0 438.914-196.916 438.914-438.917 0-119.468-48.021-227.877-125.742-307.132-43.869 63.368-167.44 109.042-313.171 109.042zM0.018 448c0 282.306 229.639 511.982 511.982 511.982 282.353 0 511.982-229.675 511.982-511.982 0-282.31-229.641-511.982-511.982-511.982-282.307 0-511.982 229.672-511.982 511.982zM512 928.953c-265.205 0-480.953-215.782-480.953-480.953s215.782-480.953 480.953-480.953c265.207 0 480.953 215.783 480.953 480.953 0 265.172-215.734 480.953-480.953 480.953zM512 871.408c-233.431 0-423.402-189.97-423.402-423.402 0-108.93 41.378-208.324 109.269-283.482 25.965 28.714 66.125 52.241 114.163 69.257 56.462 20.001 125.57 31.649 199.969 31.649 74.402 0 143.504-11.648 199.964-31.649 48.040-17.016 88.197-40.549 114.168-69.257 67.891 75.152 109.266 174.551 109.266 283.482 0 233.432-189.967 423.402-423.4 423.402zM57.569 448.005c0 250.569 203.862 454.432 454.431 454.432s454.429-203.863 454.429-454.432c0-123.712-49.739-235.976-130.18-317.993l-13.144-13.405-10.686 15.434c-19.306 27.889-57.69 53.674-110.812 72.491-52.725 18.68-118.278 29.869-189.607 29.869-71.332 0-136.882-11.189-189.609-29.869-53.124-18.816-91.509-44.601-110.807-72.484l-10.687-15.44-13.147 13.405c-80.434 82.023-130.18 194.28-130.18 317.993z" />
<glyph unicode="&#xe962;" glyph-name="video-camera" d="M767.991 503.722v119.418c0 13.738-11.548 25.025-25.603 25.025h-132.402l-153.584 150.118h-353.953v-100.101h311.556l51.206-50.018h-439.571c-14.088 0-25.603-11.287-25.603-25.025v-500.406c0-13.77 11.515-25.025 25.603-25.025h716.748c14.055 0 25.603 11.255 25.603 25.025v119.418l255.963-144.443v550.456l-255.963-144.443z" />
<glyph unicode="&#xe963;" glyph-name="vimeo" d="M0.030 651.593l41.535-54.527c0 0 85.822 67.582 114.429 33.856 28.543-33.856 137.661-441.973 174.14-517.235 31.744-66.111 119.486-153.404 215.675-91.006 96.19 62.334 415.797 335.288 473.077 657.584 57.15 322.233-384.759 254.778-431.478-25.984 116.99 70.27 179.324-28.543 119.549-140.349-59.775-111.677-114.302-184.572-142.909-184.572-28.543 0-50.559 74.751-83.198 205.435-33.856 135.037-33.664 378.423-174.204 350.84-132.477-26.047-306.617-234.042-306.617-234.042z" />
<glyph unicode="&#xe964;" glyph-name="volume-high" d="M512.157 959.945v-1023.894l-320.049 255.974h-64.017c-70.412 0-128.036 57.612-128.036 128.008v0 255.932c0 70.438 57.624 128.008 128.036 128.008v0h64.017l320.049 255.974zM874.218 810.018c199.643-199.599 199.643-524.402 0-724.042v0l-90.499 90.52c149.733 149.7 149.733 393.302 0 543.042v0zM674.504 674.278c124.736-124.79 124.736-327.771-0.042-452.563v0l-90.541 90.52c74.866 74.85 74.866 196.671 0 271.562v0z" />
<glyph unicode="&#xe965;" glyph-name="volume-low" d="M640.085 959.962v-1023.926l-320.045 255.982h-64.017c-70.411 0-127.993 57.614-127.993 128.011v0 255.94c0 70.439 57.582 128.011 127.993 128.011v0h64.017l320.045 255.982zM802.425 674.289c124.735-124.794 124.735-327.782-0.040-452.576v0l-90.499 90.523c74.825 74.852 74.825 196.678-0.040 271.57v0z" />
<glyph unicode="&#xe966;" glyph-name="volume-off" d="M455.661 899.724v-903.468l-283.567 225.867h-56.927c-62.653 0-115.137 50.836-115.137 112.952v0 225.83c0 62.153 52.486 112.952 115.137 112.952v0h56.927l283.567 225.867zM943.434 671.429l80.526-79.838-144.83-143.591 144.83-143.591-80.526-79.838-144.83 143.591-144.83-143.591-80.562 79.838 144.867 143.591-144.867 143.591 80.562 79.838 144.83-143.591 144.83 143.591z" />
<glyph unicode="&#xe967;" glyph-name="x-circle" d="M149.817 810.159c199.716 199.716 524.666 199.716 724.356 0.025s199.716-524.666 0-724.382c-199.691-199.691-524.666-199.664-724.356 0.025s-199.691 524.64 0 724.331zM230.29 729.685c-155.317-155.317-155.317-408.068 0-563.384s408.068-155.317 563.384 0c155.343 155.343 155.317 408.068 0 563.384s-408.041 155.343-563.384 0zM431.501 608.962l80.499-80.499 80.499 80.499 80.473-80.473-80.499-80.499 80.499-80.499-80.473-80.473-80.499 80.499-80.499-80.499-80.473 80.473 80.499 80.499-80.499 80.499 80.473 80.473z" />
<glyph unicode="&#xe968;" glyph-name="x" d="M1023.987 879.553l-80.434 80.434-431.535-431.535-431.535 431.535-80.47-80.434 431.573-431.535-431.573-431.535 80.47-80.47 431.535 431.535 431.535-431.535 80.434 80.47-431.535 431.535z" />
<glyph unicode="&#xe969;" glyph-name="youtube" d="M406.283 315.188v287.716l276.645-144.37-276.645-143.346zM1013.712 652.691c0 0-9.983 70.522-40.7 101.623-38.908 40.828-82.552 41.020-102.583 43.388-143.283 10.367-358.237 10.367-358.237 10.367h-0.448c0 0-214.892 0-358.173-10.367-20.031-2.368-63.61-2.56-102.583-43.388-30.717-31.101-40.7-101.623-40.7-101.623s-10.24-82.871-10.24-165.68v-77.688c0-82.871 10.24-165.744 10.24-165.744s9.983-70.522 40.7-101.623c38.972-40.765 90.104-39.484 112.885-43.772 81.912-7.807 348.127-10.24 348.127-10.24s215.147 0.319 358.429 10.686c20.031 2.368 63.673 2.56 102.583 43.323 30.717 31.101 40.7 101.623 40.7 101.623s10.24 82.871 10.24 165.744v77.688c0 82.808-10.24 165.68-10.24 165.68v0z" />
<glyph unicode="&#xe96a;" glyph-name="Youtube-Logo" d="M836.926 471.777c103.296 0 187.071-83.838 187.071-187.134v0-150.4c0-103.231-83.775-187.071-187.071-187.071v0h-649.915c-103.296 0-187.006 83.838-187.006 187.071v0 150.4c0 103.296 83.711 187.134 187.006 187.134v0zM788.094 320.098c-23.231 0-42.048-7.103-56.704-21.184-14.719-14.143-22.015-32.575-22.015-54.977v0-116.416c0-25.025 6.784-44.608 20.032-58.752 13.313-14.335 31.615-21.376 54.785-21.376 25.793 0 45.247 6.655 58.111 19.968 13.121 13.505 19.584 33.6 19.584 60.16v0 13.313h-53.311v-11.84c0-15.232-1.792-25.025-5.119-29.568-3.456-4.48-9.473-6.72-18.048-6.72-8.256 0-14.143 2.623-17.599 7.872-3.328 5.311-5.056 14.784-5.056 28.416v0 48.832h99.135v66.112c0 24.576-6.4 43.392-19.135 56.512-12.672 13.056-30.912 19.648-54.656 19.648zM398.145 313.635h-51.839v-216.702c0-15.487 3.072-26.945 9.089-34.687 6.144-7.808 15.040-11.585 27.137-11.585 9.665 0 19.711 2.688 30.016 8.321 10.433 5.44 20.352 13.44 29.887 23.936v0-28.48h51.839v259.198h-51.839v-196.863c-4.864-5.632-10.176-10.241-16.063-13.951-5.824-3.648-10.688-5.376-14.4-5.376-4.8 0-8.384 1.279-10.625 4.159-2.112 2.688-3.199 7.103-3.199 13.248v0 198.783zM585.6 405.795h-52.415v-351.357h52.415v19.903c6.72-8 14.208-13.824 22.144-17.599 7.872-3.775 16.896-5.568 27.072-5.568 15.295 0 27.137 4.8 35.2 14.592 8.192 9.857 12.161 23.936 12.161 42.175v0 143.871c0 21.184-4.224 37.375-12.929 48.448-8.64 11.072-21.119 16.512-37.567 16.512-8.064 0-16-1.984-23.936-6.144-7.744-4.096-15.168-10.176-22.144-17.983v0 113.151zM323.585 405.795h-179.199v-51.071h60.352v-300.285h58.432v300.285h60.415v51.071zM607.257 275.638c6.911 0 12.353-2.239 16.128-6.72 3.712-4.543 5.44-11.136 5.44-19.968v0-133.823c0-8.321-1.536-14.143-4.416-17.856-3.007-3.712-7.679-5.568-14.016-5.568-4.416 0-8.513 1.024-12.48 2.815-4.032 1.792-8.129 5.056-12.353 9.152v0 161.535c3.583 3.583 7.039 6.271 10.688 7.937s7.295 2.496 11.009 2.496zM785.886 274.762c7.872 0 13.76-2.368 17.28-7.168 3.52-4.608 5.376-12.416 5.376-23.297v0-26.177h-45.76v26.177c0 10.88 1.728 18.688 5.376 23.297 3.583 4.8 9.473 7.168 17.728 7.168zM505.831 854.47c24.128 0 43.84-6.911 59.392-20.735 15.295-13.697 22.975-31.68 22.975-53.375v0-147.455c0-24.449-7.487-43.519-22.591-57.535-15.168-13.888-35.968-20.8-62.464-20.8-25.536 0-45.952 7.168-61.248 21.568-15.232 14.4-22.912 33.6-22.912 57.856v0 148.031c0 22.144 7.872 39.744 23.489 52.799 15.679 13.121 36.863 19.648 63.359 19.648zM693.733 847.23v-218.878c0-6.72 1.408-11.585 3.775-14.592 2.368-3.072 6.463-4.543 11.904-4.543 4.224 0 9.728 1.984 16.255 5.952 6.528 4.096 12.545 9.152 17.983 15.36v0 216.702h58.368v-285.501h-58.368v31.68c-10.688-11.648-21.887-20.608-33.6-26.624-11.585-6.016-22.847-9.216-33.792-9.216-13.568 0-23.616 4.351-30.528 12.929-6.784 8.384-10.241 21.119-10.241 38.143v0 238.589h58.24zM260.104 948.829l42.624-154.751h4.096l40.704 154.751h66.688l-76.48-226.494v-160.575h-65.599v153.342l-78.208 233.727h66.175zM502.95 804.997c-7.039 0-12.864-1.855-17.344-5.695-4.416-3.904-6.655-8.897-6.655-15.168v0-155.519c0-7.872 2.112-13.824 6.271-18.112 4.096-4.416 10.049-6.463 17.728-6.463 7.937 0 14.208 2.176 18.816 6.528 4.672 4.351 7.039 10.433 7.039 18.048v0 155.519c0 6.271-2.368 11.264-7.103 15.168-4.735 3.84-11.009 5.695-18.751 5.695z" />
</font>
</defs>
</svg>
